Details for this torrent 

Type SE
Magnet link Uploaded Today 13.29, ULed by piratebay HIDE MY IP NOW
Lost S01E17 - AVM (Embedded subtitles)
Type:
Video > TV shows
Files:
1
Size:
129.02 MiB (135285839 Bytes)
Spoken language(s):
English
Texted language(s):
Spanish
Tag(s):
Lost Mobile
Uploaded:
2009-08-06 03:29:00 GMT
By:
SysProfile
Seeders:
0
Leechers:
1
Comments
0  

Info Hash:
9C560B2910AEC2153F26BE8C55F3A3D17E2038DB




(Problems with magnets links are fixed by upgrading your torrent client!)
AVIDMobile - http://www.avidmobile.com.ar (Mobile media)

* The video contains embedded subtitles in Spanish. You can find the same video without the subtitles. Visit http://blog.avidmobile.com.ar.

* El video contiene subtítulos incrustados en Español. Usted podrá encontrar el mismo video sin los subtítulos. Visite http://blog.avidmobile.com.ar.

Video
ID                               : 1
Format                           : MPEG-4 Visual
Format profile                   : Advanced [email protected]
Format settings, BVOP            : Yes
Format settings, QPel            : No
Format settings, GMC             : No warppoints
Format settings, Matrix          : Default (H.263)
Codec ID                         : 20
Duration                         : 43mn 4s
Bit rate mode                    : Variable
Bit rate                         : 349 Kbps
Maximum bit rate                 : 1 531 Kbps
Width                            : 320 pixels
Height                           : 240 pixels
Display aspect ratio             : 4/3
Frame rate mode                  : Variable
Frame rate                       : 23.976 fps
Minimum frame rate               : 23.974 fps
Maximum frame rate               : 23.981 fps
Resolution                       : 24 bits
Colorimetry                      : 4:2:0
Scan type                        : Progressive
Bits/(Pixel*Frame)               : 0.190
Stream size                      : 108 MiB (83%)

Audio
ID                               : 2
Format                           : AAC
Format/Info                      : Advanced Audio Codec
Format version                   : Version 4
Format profile                   : LC
Format settings, SBR             : No
Codec ID                         : 40
Duration                         : 43mn 4s
Bit rate mode                    : Variable
Bit rate                         : 66.15 Kbps
Maximum bit rate                 : 98.0 Kbps
Channel(s)                       : 2 channels
Channel positions                : L R
Sampling rate                    : 22.05 KHz
Resolution                       : 16 bits
Stream size                      : 20.5 MiB (16%)